Ghajini (2005) Tamil Complete Blu-Ray AVC DTS – HDMA 5.1 LPCM 40GB

Amazon.in: Buy GHAJINI TAMIL BLU RAY ( UK IMPORT ALL REGIONS ...

General
Complete name : Ghajini (2005) Tamil Complete Blu-Ray AVC DTS – HDMA 5.1 LPCM
Format : BDAV
Format/Info : Blu-ray Video
File size : 39.3 GiB
Duration : 2 h 52 min
Overall bit rate mode : Variable
Overall bit rate : 32.7 Mb/s
Maximum Overall bit rate : 48.0 Mb/s

Video
ID : 4113 (0x1011)
Menu ID : 1 (0x1)
Format : AVC
Format/Info : Advanced Video Codec
Format profile : [email protected]
Format settings : CABAC / 4 Ref Frames
Format settings, CABAC : Yes
Format settings, Reference frames : 4 frames
Format settings, GOP : M=3, N=24
Codec ID : 27
Duration : 2 h 52 min
Bit rate mode : Variable
Maximum bit rate : 32.0 Mb/s
Width : 1 920 pixels
Height : 1 080 pixels
Display aspect ratio : 16:9
Frame rate : 24.000 FPS
Standard : NTSC
Color space : YUV
Chroma subsampling : 4:2:0
Bit depth : 8 bits
Scan type : Progressive
Color range : Limited
Color primaries : BT.709
Transfer characteristics : BT.709
Matrix coefficients : BT.709

Audio #1
ID : 4352 (0x1100)
Menu ID : 1 (0x1)
Format : DTS XLL
Format/Info : Digital Theater Systems
Commercial name : DTS-HD Master Audio
Muxing mode : Stream extension
Codec ID : 134
Duration : 2 h 52 min
Bit rate mode : Variable
Channel(s) : 6 channels
Channel layout : C L R Ls Rs LFE
Sampling rate : 48.0 kHz
Frame rate : 93.750 FPS (512 SPF)
Bit depth : 24 bits
Compression mode : Lossless

Audio #2
ID : 4353 (0x1101)
Menu ID : 1 (0x1)
Format : AC-3
Format/Info : Audio Coding 3
Commercial name : Dolby Digital
Codec ID : 129
Duration : 2 h 52 min
Bit rate mode : Constant
Bit rate : 640 kb/s
Channel(s) : 6 channels
Channel layout : L R C LFE Ls Rs
Sampling rate : 48.0 kHz
Frame rate : 31.250 FPS (1536 SPF)
Compression mode : Lossy
Stream size : 788 MiB (2%)
Service kind : Complete Main

Audio #3
ID : 4354 (0x1102)
Menu ID : 1 (0x1)
Format : PCM
Format settings : Big / Signed
Muxing mode : Blu-ray
Codec ID : 128
Duration : 2 h 52 min
Bit rate mode : Constant
Bit rate : 4 608 kb/s
Channel(s) : 6 channels
Channel layout : L R C Ls Rs LFE
Sampling rate : 48.0 kHz
Bit depth : 16 bits
Stream size : 5.54 GiB (14%)

Text
ID : 4608 (0x1200)
Menu ID : 1 (0x1)
Format : PGS
Codec ID : 144


vlcsnap-2020-07-25-21h07m54s923vlcsnap-2020-07-25-21h08m01s059vlcsnap-2020-07-25-21h08m08s544vlcsnap-2020-07-25-21h08m28s793vlcsnap-2020-07-25-21h08m33s733vlcsnap-2020-07-25-21h08m38s495vlcsnap-2020-07-25-21h08m42s204vlcsnap-2020-07-25-21h08m49s518vlcsnap-2020-07-25-21h08m59s203vlcsnap-2020-07-25-21h09m08s012vlcsnap-2020-07-25-21h09m18s788
Gdrive Single Link+Download
https://bit.ly/39xqHpk

Gdrive Multiple Links+Download
Part-1 https://bit.ly/2ElHsYX
Part-2 https://bit.ly/32Y7g7E
Part-3 https://bit.ly/3eXCvCl
Part-4 https://bit.ly/3f2uuvE

Leave a Reply

avatar
  Subscribe  
Notify of