About.Time.2013.1080p.10bit.BluRay.5.1.x265.HEVC Hin-Eng 1.92Gb

About Time - HD-Trailers.net (HDTN)

Complete name : About.Time.2013.1080p.10bit.BluRay.5.1.x265.HEVC
Format : Matroska
Format version : Version 4
File size : 1.91 GiB
Duration : 2 h 3 min
Overall bit rate : 2 222 kb/s
Encoded date : UTC 2020-07-21 16:34:01
Writing application : mkvmerge v48.0.0 (‘Fortress Around Your Heart’) 64-bit
Writing library : libebml v1.4.0 + libmatroska v1.6.0 / Lavf58.20.100
ENCODING_INFO : AC3 > MKV

Video
ID : 1
Format : HEVC
Format/Info : High Efficiency Video Coding
Format profile : Main [email protected]@Main
Codec ID : V_MPEGH/ISO/HEVC
Duration : 2 h 3 min
Bit rate : 1 800 kb/s
Width : 1 920 pixels
Height : 800 pixels
Display aspect ratio : 2.40:1
Frame rate mode : Constant
Frame rate : 23.976 (24000/1001) FPS
Color space : YUV
Chroma subsampling : 4:2:0
Bit depth : 10 bits
Bits/(Pixel*Frame) : 0.049
Stream size : 1.55 GiB (81%)
Writing library : x265 1.7+497-975352b2c022:[Windows][GCC 5.2.0][64 bit] 10bit
Encoding settings : wpp / ctu=64 / min-cu-size=8 / max-tu-size=32 / tu-intra-depth=1 / tu-inter-depth=1 / me=1 / subme=2 / merange=57 / no-rect / no-amp / max-merge=2 / temporal-mvp / no-early-skip / rdpenalty=0 / no-tskip / no-tskip-fast / strong-intra-smoothing / no-lossless / no-cu-lossless / no-constrained-intra / no-fast-intra / open-gop / no-temporal-layers / interlace=0 / keyint=250 / min-keyint=23 / scenecut=40 / rc-lookahead=20 / lookahead-slices=0 / bframes=4 / bframe-bias=0 / b-adapt=2 / ref=3 / limit-refs=0 / weightp / no-weightb / aq-mode=1 / qg-size=32 / aq-strength=1.00 / cbqpoffs=0 / crqpoffs=0 / rd=3 / psy-rd=0.30 / rdoq-level=0 / psy-rdoq=0.00 / signhide / deblock / sao / no-sao-non-deblock / b-pyramid / cutree / rc=2 / pass / bitrate=1799 / qcomp=0.60 / qpmin=0 / qpmax=51 / qpstep=4 / cplxblur=20.0 / qblur=0.5 / ipratio=1.40 / pbratio=1.30
Default : Yes
Forced : No

Audio #1
ID : 2
Format : AAC LC SBR
Format/Info : Advanced Audio Codec Low Complexity with Spectral Band Replication
Commercial name : HE-AAC
Format settings : Explicit
Codec ID : A_AAC-2
Duration : 2 h 3 min
Bit rate : 192 kb/s
Channel(s) : 6 channels
Channel layout : C L R Ls Rs LFE
Sampling rate : 48.0 kHz
Frame rate : 23.438 FPS (2048 SPF)
Compression mode : Lossy
Delay relative to video : 40 ms
Stream size : 169 MiB (9%)
Title : MZABI
Language : English
Default : Yes
Forced : No

Audio #2
ID : 5
Format : AAC LC
Format/Info : Advanced Audio Codec Low Complexity
Codec ID : A_AAC-2
Duration : 2 h 3 min
Bit rate : 192 kb/s
Channel(s) : 6 channels
Channel layout : C L R Ls Rs LFE
Sampling rate : 48.0 kHz
Frame rate : 46.875 FPS (1024 SPF)
Compression mode : Lossy
Stream size : 169 MiB (9%)
Title : Track 2
Language : Hindi
Default : No
Forced : No
ENCODING_INFO : AC3 > AAC CBR 192kbps LC

Text #1
ID : 3
Format : PGS
Muxing mode : zlib
Codec ID : S_HDMV/PGS
Codec ID/Info : Picture based subtitle format used on BDs/HD-DVDs
Duration : 1 h 56 min
Bit rate : 45.6 kb/s
Count of elements : 4058
Stream size : 37.8 MiB (2%)
Language : English
Default : No
Forced : No

Text #2
ID : 4
Format : PGS
Muxing mode : zlib
Codec ID : S_HDMV/PGS
Codec ID/Info : Picture based subtitle format used on BDs/HD-DVDs
Duration : 1 h 56 min
Bit rate : 76.4 kb/s
Count of elements : 4695
Stream size : 63.8 MiB (3%)
Language : English
Default : No
Forced : No

Menu
00:00:00.000 : en:Chapter 1
00:03:58.071 : en:Chapter 2
00:10:11.902 : en:Chapter 3
00:17:26.295 : en:Chapter 4
00:20:38.111 : en:Chapter 5
00:26:04.396 : en:Chapter 6
00:32:44.003 : en:Chapter 7
00:40:26.590 : en:Chapter 8
00:45:17.965 : en:Chapter 9
00:49:43.438 : en:Chapter 10
00:54:50.870 : en:Chapter 11
01:03:44.529 : en:Chapter 12
01:09:29.373 : en:Chapter 13
01:16:28.000 : en:Chapter 14
01:21:35.724 : en:Chapter 15
01:27:24.447 : en:Chapter 16
01:34:52.812 : en:Chapter 17
01:43:48.847 : en:Chapter 18
01:49:32.315 : en:Chapter 19
01:57:03.141 : en:Chapter 20

vlcsnap-2020-07-21-09h51m29s345vlcsnap-2020-07-21-09h51m42s454vlcsnap-2020-07-21-09h51m48s903vlcsnap-2020-07-21-09h51m58s164vlcsnap-2020-07-21-09h52m04s239vlcsnap-2020-07-21-09h52m15s425vlcsnap-2020-07-21-09h52m21s827vlcsnap-2020-07-21-09h52m30s957vlcsnap-2020-07-21-09h52m38s221
Gdrive Single Link+Download
https://bit.ly/3hmzKvJ

Leave a Reply

avatar
  Subscribe  
Notify of